#TITLE:Ha ha ha;
#SUBTITLE:Tony;
#ARTIST:Girls' Generation;
#TITLETRANSLIT:;
#SUBTITLETRANSLIT:;
#ARTISTTRANSLIT:;
#CREDIT:Tony;
#BANNER:hahaha-bn.png;
#BACKGROUND:hahaha-bg.jpg;
#LYRICSPATH:;
#CDTITLE:hahaha.png;
#MUSIC:Ha ha ha.ogg;
#OFFSET:-0.500;
#SAMPLESTART:106.100;
#SAMPLELENGTH:13.300;
#SELECTABLE:YES;
#DISPLAYBPM:152.000;
#BPMS:0.000=152.000,107.000=304.000,107.667=76.000,108.000=152.000,267.000=76.000,267.354=304.000,268.000=152.000;
#STOPS:;
#BGCHANGES:;
// cache tags:
#FIRSTBEAT:0.000;
#LASTBEAT:368.750;
#SONGFILENAME:Songs/SDO/Ha ha ha/Ha ha ha.sm;
#HASMUSIC:1;
#HASBANNER:1;
#MUSICLENGTH:150.047;
// end cache tags

//---------------dance-single - ----------------
#NOTES:
     dance-single:
     :
     Hard:
     11:
     1.000,1.000,1.000,0.713,0.933,916.000,264.000,107.000,0.000,40.000:
0001
0001
0001
0001
,
1010
0000
1100
0110
0000
0010
0101
0000
,
1100
0110
1010
0110
0000
0100
1001
0000
,
0011
0000
1000
0110
0000
0010
0101
0000
,
0110
0110
1001
1001
1100
0010
0101
0000
,
0101
0010
0101
1000
1100
0010
1100
0010
,
0101
1000
1010
0011
1100
0001
0002
0000
,
1013
1010
0011
0010
0101
0101
1100
0001
,
0110
0110
1000
2000
0000
3001
0002
0000
,
0113
0110
1100
1100
,
1001
1001
0000
2002
0000
3013
0101
1000
,
1100
0110
0011
0101
,
1001
1001
0110
2002
0000
3103
1001
0010
,
0101
1000
0011
0010
1001
0100
0110
0001
,
0110
0110
1100
0012
0000
1003
1100
0000
,
0101
0011
1010
1100
,
0110
0011
0000
2000
0000
0000
3110
0010
,
0101
1000
1010
0001
0011
0000
1000
0100
,
1010
0001
0011
0110
1100
0001
0010
0100
,
1001
0010
1001
0100
1001
0010
0101
0001
,
1010
1100
0011
0110
1100
0001
0011
1100
,
0110
0010
0101
1000
1100
0000
0011
0100
,
1001
0010
0101
1000
0110
0001
0110
0100
,
1001
0010
0101
0010
0101
1000
1010
0001
,
0011
0001
0101
0001
0011
0010
1001
0010
,
0101
0000
1010
0100
0011
0000
0110
1000
,
0001
0011
0111
1111
,
0001
0100
0010
1000
0010
0100
0001
1000
0100
1000
0010
0100
0001
1000
0010
0100
,
1001
0010
0001
0100
0010
1000
0100
1000
0001
0100
0010
1000
0010
0001
0100
0010
,
1001
0100
1000
0010
0100
0001
0100
0001
0010
1000
0001
0100
0010
1000
0001
0010
,
0101
0010
1000
0001
0010
0001
0100
0010
1000
0010
0100
0001
0100
0010
1000
0100
,
1002
0010
0100
0010
0203
0001
0010
0001
0320
1000
0001
0100
2030
0001
0100
0010
,
3002
0010
1000
0100
1013
0001
0100
0010
1000
0001
0100
0010
1000
0001
0010
1000
,
0210
0001
0010
1000
0010
1000
0001
0010
0001
0010
1000
0010
0001
1000
0010
0001
,
1310
0100
0001
0100
1010
0001
0100
1000
0011
0100
0001
0010
0001
0100
0010
1000
,
0110
1000
0001
0010
0001
0100
0010
1000
0101
0010
0100
1000
0011
0100
0010
1000
,
0110
0001
0100
0010
1001
0100
1000
0010
0100
0010
0001
0100
1010
0001
0010
0100
,
1001
0100
1000
0010
1000
0100
1000
0001
1000
0010
1000
0100
1000
0010
1000
0100
,
1001
0010
0100
0001
1100
0010
0001
0100
1010
0001
0010
0100
0011
1000
0010
0100
,
1020
0001
0130
1000
0002
0100
0013
1000
0002
1000
0013
0100
0020
0001
0130
0001
,
0200
0010
1300
0010
2000
0100
3001
0010
0002
0100
1003
0100
2000
0010
3100
0001
,
0020
1000
0100
1000
0001
0100
1000
0100
0001
1000
0100
1000
0001
0100
1000
0100
,
0031
1000
0100
1000
0010
0100
0010
1000
0001
0100
0010
1000
0010
0100
0001
0010
,
0101
1000
1100
0010
0101
1000
0110
0001
,
0011
0011
1100
0110
0000
0010
0101
0000
,
1001
0000
0010
0000
1001
0000
0100
0000
2002
0000
0000
3003
1001
0000
0110
0000
,
2002
0000
3113
0001
0110
0100
1010
0000
,
1100
0010
0101
1000
1100
0001
0101
0010
,
0110
0110
0011
0110
0000
0100
1010
0000
,
1100
0001
0011
1010
1010
1100
0011
0100
,
1010
0000
0001
0110
0000
0100
1010
0000
,
1100
0110
0011
0110
,
1010
0110
0000
0022
0000
0133
1010
0000
,
1010
0101
1001
0101
,
0011
0110
0000
2020
0000
3130
0101
0000
,
1001
0001
0101
0011
0010
0010
0011
0010
,
0101
0100
0110
1100
1000
1000
1010
1000
,
1001
0011
0110
1100
,
0101
0011
0000
0220
0000
0331
1001
0000
,
2020
0030
3011
0002
0020
0033
0200
2300
,
0201
3300
0110
0020
0000
0030
0200
2300
,
0012
3003
0110
0020
0002
0033
0110
2000
,
0201
3310
0110
0011
0000
0100
1010
0000
,
1010
0100
1010
0001
0101
0010
0101
1000
,
1100
0110
1100
0120
0000
0031
0110
0000
,
1010
0101
1010
0110
,
1001
1001
0000
0220
0000
0000
0330
0000
,
0011
0100
0010
1000
0010
0100
0001
1000
0100
1000
0010
0100
0001
1000
0010
0100
,
0011
0100
0001
0100
0010
1000
0100
1000
0001
0100
0010
1000
0010
0001
0100
0010
,
1100
0010
1000
0010
0100
0001
0100
0001
0010
1000
0001
0100
0010
1000
0001
0100
,
0011
0100
0010
1000
0010
0001
0100
0010
1000
0010
0100
0001
0100
0010
1000
0100
,
2000
0010
0001
0010
3200
0001
0010
0001
0320
1000
0001
0100
0032
0010
0100
0010
,
2003
0100
0001
0100
3011
1000
0010
0100
0001
0010
1000
0010
0100
0001
0010
1000
,
0210
0001
0010
1000
0010
1000
0001
0010
0001
0010
1000
0010
0001
1000
0010
0001
,
1310
0100
0001
0100
1010
0001
0100
1000
0011
0100
1001
0000
1001
0000
0000
0000
,
0112
2000
3020
0230
0300
2000
3200
0320
,
2133
0001
0100
0010
0001
0100
0001
0010
3100
0010
0001
0100
1010
0001
0010
0100
,
1001
0100
1000
0010
1000
0100
1000
0001
1000
0010
1000
0100
1000
0010
1000
0100
,
1001
0010
0100
0001
1100
0010
0001
0100
1010
0001
0010
0100
0011
1000
0010
0100
,
1020
0230
0302
0023
0032
2003
3020
0032
,
0203
0020
0032
0323
0032
0203
2300
3002
,
0223
2300
3002
0203
0302
2003
3002
0203
,
0332
1000
0203
1000
0312
0100
0023
1000
0032
0100
0023
1000
2030
0000
0000
0000
,
3111
0100
0010
0100
1001
0100
0010
1000
0011
0100
0001
0100
1000
0010
0100
0001
,
1100
0010
1000
0010
1100
0001
0010
1000
0011
0100
0001
1000
0110
1000
0001
0100
,
0011
1000
0010
0100
0011
1000
0010
0001
1100
0010
0100
0001
0110
0001
0100
0010
,
1100
0001
0010
1000
0011
0100
0010
1000
0110
1000
0001
0100
0011
1000
0010
0001
,
2010
0100
0001
0010
3002
1000
0010
1000
0203
0010
0001
1000
0302
0010
0100
0010
,
2003
0100
0010
0001
3010
0001
0100
0010
1000
0010
0100
0001
0100
0010
1000
0001
,
0020
1000
0100
1000
0001
0100
1000
0100
0001
1000
0100
1000
0031
0100
0010
1000
,
0010
0100
0001
0100
1010
0001
1000
0010
0100
0001
0100
0000
0200
0000
0000
0000
,
1301
0010
0100
0020
0000
0130
0001
2000
,
0000
0000
0000
3000
0000
0000
0000
0000
0000
0000
0000
0000
0000
0000
0000
0000
;
